Homens de Coragem [USS Indianapolis: Men of Courage, 2017] BDRip Dual Áudio

468x60

A verdadeira história da equipe USS Indianapolis, que está presa no mar das Filipinas por cinco dias após entregar as armas atômicas que ajudaram no fim da Segunda Guerra Mundial. Enquanto esperam o resgate, eles passam fome, sede e ataques de tubarão.

img-download
Título Traduzido: Homens de Coragem
Título Original: USS Indianapolis: Men of Courage
Lançamento: 2017

MEDIAINFO
Format : MPEG-4 Visual
Format profile : Advanced [email protected]
Format settings, BVOP : 2
Format settings, QPel : No
Format settings, GMC : No warppoints
Format settings, Matrix : Default (H.263)
Muxing mode : Packed bitstream
Codec ID : V_MS/VFW/FOURCC / XVID
Codec ID/Hint : XviD
Duration : 2 h 9 min
Bit rate : 1 258 kb/s
Width : 720 pixels
Height : 304 pixels
Display aspect ratio : 2.35:1
Frame rate mode : Constant
Frame rate : 23.976 (23976/1000) FPS
Color space : YUV
Chroma subsampling : 4:2:0
Bit depth : 8 bits
Scan type : Progressive
Compression mode : Lossy
Bits/(Pixel*Frame) : 0.240
Stream size : 1.14 GiB (60%)
Title : Homens.de.Coragem.2016.BDRip.DUAL-yishioon
Writing library : XviD 66
Default : Yes
Forced : No

Audio #1
ID : 2
Format : AC-3
Format/Info : Audio Coding 3
Mode extension : CM (complete main)
Format settings, Endianness : Big
Codec ID : A_AC3
Duration : 2 h 9 min
Bit rate mode : Constant
Bit rate : 448 kb/s
Channel(s) : 6 channels
Channel positions : Front: L C R, Side: L R, LFE
Sampling rate : 48.0 kHz
Frame rate : 31.250 FPS (1536 spf)
Bit depth : 16 bits
Compression mode : Lossy
Stream size : 416 MiB (21%)
Title : yishioon AC3 5.1 PT-BR
Language : Portuguese
Default : Yes
Forced : Yes

Audio #2
ID : 3
Format : AC-3
Format/Info : Audio Coding 3
Mode extension : CM (complete main)
Format settings, Endianness : Big
Codec ID : A_AC3
Duration : 2 h 9 min
Bit rate mode : Constant
Bit rate : 384 kb/s
Channel(s) : 6 channels
Channel positions : Front: L C R, Side: L R, LFE
Sampling rate : 48.0 kHz
Frame rate : 31.250 FPS (1536 spf)
Bit depth : 16 bits
Compression mode : Lossy
Stream size : 357 MiB (18%)


Download BRFILES | Download UPLOADED

468x60
By WordPress